<?xml version="1.0" standalone="no"?>
<!DOCTYPE svg PUBLIC "-//W3C//DTD SVG 1.1//EN" "http://www.w3.org/Graphics/SVG/1.1/DTD/svg11.dtd" >
<svg xmlns="http://www.w3.org/2000/svg" xmlns:xlink="http://www.w3.org/1999/xlink" version="1.1">
<metadata>
Created by FontForge 20190801 at Sun May 20 03:19:29 2012
 By root
Copyright (c) 2012 by Sang Mun. All rights reserved.
</metadata>
<defs>
<font id="ZXX-Noise" horiz-adv-x="650" >
  <font-face 
    font-family="ZXX"
    font-weight="400"
    font-stretch="normal"
    units-per-em="1000"
    panose-1="0 0 0 0 0 0 0 0 0 0"
    ascent="770"
    descent="-230"
    x-height="526"
    cap-height="664"
    bbox="21.1821 -250 628.818 837"
    underline-thickness="50"
    underline-position="-100"
    unicode-range="U+0020-2212"
  />
<missing-glyph horiz-adv-x="500" 
d="M50 -230v950h400v-950h-400zM100 -180h300v850h-300v-850z" />
    <glyph glyph-name=".notdef" horiz-adv-x="500" 
d="M50 -230v950h400v-950h-400zM100 -180h300v850h-300v-850z" />
    <glyph glyph-name="onehalf" unicode="&#xbd;" 
d="M176 0h-110l211 381h-195c-12 0 -22 10 -22 23c0 12 10 22 22 22h119v279h-119c-12 0 -22 10 -22 23c0 12 10 22 22 22h142c12 0 22 -10 22 -22v-302h56l172 312h110l-218 -395c24 17 53 26 83 26c66 0 133 -44 133 -124c1 -7 -1 -15 -6 -21l-184 -179h145v59
c0 12 10 22 23 22c12 0 22 -10 22 -22v-81c0 -13 -10 -23 -22 -23h-223l-5 1c-3 0 -5 1 -7 3c-1 1 -3 2 -1 0c0 1 -1 1 -1 2l-2 1c-9 9 -8 23 0 32l216 211c-2 22 -11 40 -26 53c-16 14 -39 21 -62 21c-45 0 -89 -26 -89 -84c0 -12 -10 -22 -23 -22c-12 0 -22 10 -22 22v12z
" />
    <glyph glyph-name="onequarter" unicode="&#xbc;" 
d="M66 0l211 381h-195c-12 0 -22 10 -22 23c0 12 10 22 22 22h119v279h-119c-12 0 -22 10 -22 23c0 12 10 22 22 22h142c12 0 22 -10 22 -22v-302h56l172 312h110l-408 -738h-110zM569 0c-13 0 -23 10 -23 23v58h-200l-5 1v0c2 -1 3 -1 -1 0c-1 0 -3 1 -4 1c-2 1 -4 3 -3 2
l-1 1l-1 1l-2 2v1c0 -1 1 -2 -3 3v1c-4 8 -3 18 2 23l1 1l1 1l222 243l2 2s1 0 1 1c-1 -1 -2 -2 3 2h1c8 4 18 3 23 -2c0 -1 1 -1 1 -1l1 -1l2 -2v0c4 -5 6 -11 5 -17v-321c0 -13 -10 -23 -22 -23zM546 126v163l-149 -163h149z" />
    <glyph glyph-name="threequarters" unicode="&#xbe;" 
d="M66 0l229 414c-22 -20 -54 -33 -96 -33h-1h-4v0c-34 0 -66 9 -90 26c-29 19 -44 49 -44 83c0 12 10 22 22 22c13 0 23 -10 23 -22c0 -44 46 -64 89 -64c42 0 88 20 88 62c-2 27 -28 55 -83 55h-36c-12 0 -22 10 -22 23c0 12 10 22 22 22h36c57 0 83 31 83 58
c-1 17 -9 31 -25 42s-39 17 -64 17c-42 0 -88 -20 -88 -63c0 -13 -10 -23 -23 -23c-12 0 -22 10 -22 23c0 71 67 108 133 108h5h1c84 0 128 -52 128 -103v-3v-2c0 -2 0 -4 -1 -6c-3 -27 -18 -53 -44 -70c27 -19 42 -45 45 -73v-3v-2v-3c0 -5 0 -10 -1 -15l148 268h110
l-408 -738h-110zM569 0c-13 0 -23 10 -23 23v58h-200l-5 1v0c2 -1 3 -1 -1 0c-1 0 -3 1 -4 1c-2 1 -4 3 -3 2l-1 1l-1 1l-2 2v1c0 -1 1 -2 -3 3v1c-4 8 -3 18 2 23l1 1l1 1l222 243l2 2s1 0 1 1c-1 -1 -2 -2 3 2h1c8 4 18 3 23 -2c0 -1 1 -1 1 -1l1 -1l2 -2v0
c4 -5 6 -11 5 -17v-321c0 -13 -10 -23 -22 -23zM546 126v163l-149 -163h149z" />
    <glyph glyph-name="minus" unicode="&#x2212;" 
d="M579 414v-90h-508v90h508z" />
    <glyph glyph-name="multiply" unicode="&#xd7;" 
d="M487 143l-162 162l-162 -162l-64 64l162 162l-162 162l64 64l162 -162l162 162l64 -64l-162 -162l162 -162z" />
    <glyph glyph-name="space" unicode=" " 
 />
    <glyph glyph-name="exclam" unicode="!" 
d="M279 222v528h90v-528h-90zM480 630v45h45v-45h-45zM438 585h-45v45h45v-45zM123 630h45v-90h-45v90zM573 540h-45v45h45v-45zM483 540v-45h-90v45h90zM78 450h-45v45h45v-45zM78 405v45h45v-45h-45zM528 450h90v-45h-45v-45h-45v90zM258 360h-45v45h45v-45zM78 360h-45
v45h45v-45zM123 315h-45v45h45v-45zM213 270v45h45v-90h-90v45h45zM528 225v45h45v-45h-45zM618 135h-45v45h45v-45zM528 135h-45v45h45v-45zM78 135h-45v45h45v-45zM248 0v153h153v-153h-153z" />
    <glyph glyph-name="quotedbl" unicode="&#x22;" 
d="M100 577l40 223h143l-40 -223h-143zM510 577h-143l40 223h143z" />
    <glyph glyph-name="numbersign" unicode="#" 
d="M423 269l24 199h-210l-24 -199h210zM202 179l-22 -179h-90l22 179h-70l11 90h70l24 199h-90l11 90h90l22 180h90l-22 -180h210l22 180h90l-22 -180h70l-11 -90h-70l-24 -199h90l-11 -90h-90l-22 -179h-90l22 179h-210z" />
    <glyph glyph-name="dollar" unicode="$" 
d="M284 366v206c-62 -11 -119 -47 -119 -107c2 -44 40 -90 119 -99zM365 76l1 1c62 10 118 46 118 105c-2 44 -40 90 -119 99v-205zM284 -85v79c-45 5 -87 21 -120 43c-52 36 -80 89 -80 150v40h81v-40v-5c3 -61 58 -95 119 -106v208c-123 11 -190 88 -199 167
c-1 3 -1 6 -1 9v5v4c0 86 68 174 200 186v75h81v-77c106 -13 200 -80 200 -193v-40h-81v40v5c-2 33 -16 59 -45 78c-20 14 -46 24 -74 28v-208c123 -11 191 -88 199 -168c1 -2 1 -5 1 -8v-4v-5c0 -86 -68 -174 -200 -186v-77h-81z" />
    <glyph glyph-name="percent" unicode="%" 
d="M366 581c0 -87 -71 -159 -158 -159c-86 0 -158 72 -158 159s72 157 158 157c87 0 158 -70 158 -157zM208 499c45 0 82 37 82 82s-37 81 -82 81c-43 0 -81 -36 -81 -81s38 -82 81 -82zM150 100h-100l450 538h100zM443 0c-87 0 -159 72 -159 158c0 88 72 158 159 158
c86 0 157 -70 157 -158c0 -86 -71 -158 -157 -158zM443 77c44 0 81 37 81 81c0 46 -37 82 -81 82c-43 0 -82 -36 -82 -82c0 -44 39 -81 82 -81z" />
    <glyph glyph-name="ampersand" unicode="&#x26;" 
d="M528 -18l-26 37l-21 32c-48 -34 -107 -51 -166 -51c-69 0 -133 23 -182 64c-56 47 -85 114 -85 194c0 99 52 176 131 213c-20 32 -30 73 -30 122c0 79 41 157 148 157h6c103 -3 142 -80 142 -157c0 -92 -36 -155 -99 -178l140 -210c4 16 7 34 7 53v145h90v-145v-6
c-1 -53 -15 -98 -39 -135l31 -46l26 -37zM239 593v-3c-1 -30 -8 -90 58 -95c69 5 58 70 58 98c0 59 -39 67 -58 67v0c-19 0 -58 -8 -58 -67zM315 90c42 0 83 11 116 36l-183 274c-50 -13 -110 -50 -110 -142c0 -116 89 -168 177 -168z" />
    <glyph glyph-name="parenleft" unicode="(" 
d="M481 -90h-46c-140 2 -266 132 -267 292v335c-1 179 139 291 267 291h46v-90h-46c-88 0 -177 -82 -177 -218v-302c0 -136 89 -218 177 -218h46v-90z" />
    <glyph glyph-name="parenright" unicode=")" 
d="M168 -90v90h46c88 0 177 82 177 218v302c0 136 -89 218 -177 218h-46v90h46c128 0 268 -112 267 -291v-335c-1 -160 -127 -290 -267 -292h-46z" />
    <glyph glyph-name="asterisk" unicode="*" 
d="M370 378v-156h-90v156l-110 -110l-63 63l110 110h-156v90h156l-110 110l63 63l110 -110v156h90v-156l110 110l63 -63l-110 -110h156v-90h-156l110 -110l-63 -63z" />
    <glyph glyph-name="plus" unicode="+" 
d="M280 95v229h-209v90h209v229h90v-229h209v-90h-209v-229h-90z" />
    <glyph glyph-name="comma" unicode="," 
d="M450 150v50h50v-50h-50zM150 150v50h50v-50h-50zM200 -50h-50v50h50v-50zM550 -50h-50v50h50v-50zM450 -150h-50v50h50v-50zM185 -170h-45v90h45h6c64 1 84 18 90 80h-29v153h153v-153h-34c-7 -105 -40 -170 -186 -170z" />
    <glyph glyph-name="hyphen" unicode="-" 
d="M190 280v90h270v-90h-270z" />
    <glyph glyph-name="period" unicode="." 
d="M248 0v153h153v-153h-153z" />
    <glyph glyph-name="slash" unicode="/" 
d="M176 0h-110l408 738h110z" />
    <glyph glyph-name="zero" unicode="0" 
d="M528 630v45h45v-45h-45zM393 495v45h45v-45h-45zM303 360h-45v45h45v-45zM393 360v45h45v-45h-45zM348 270h-45v45h45v-45zM258 135h-45v45h45v-45zM375 81c80 0 110 74 110 196v110v0c0 122 -30 196 -110 196h-100h-5c-33 -1 -58 -16 -75 -43h18v-45h-36
c-8 -30 -12 -66 -12 -108v-110v0c0 -122 30 -196 110 -196h100zM375 0h-100v0c-126 2 -190 119 -191 263v139c0 34 3 65 9 93h-13v45h27c30 79 90 124 168 124h100h5c64 -2 116 -35 148 -92v13h45v-45h-30c15 -39 23 -85 23 -138v-139c0 -13 -1 -26 -2 -38h9v-45h-15
c-21 -103 -82 -178 -183 -180z" />
    <glyph glyph-name="one" unicode="1" 
d="M215 495v45h45v-45h-45zM530 450v45h45v-45h-45zM260 405h-45v45h45v-45zM125 360h-45v45h45v-45zM575 315h-45v45h45v-45zM125 270h-45v45h45v-45zM620 225h-45v45h45v-45zM85 0v81h254v54h-34v45h34v403l-205 -57v81l205 57h81v-394h20v-45h-20v-144h146v-81h-481z" />
    <glyph glyph-name="two" unicode="2" 
d="M212 720v45h45v-45h-45zM167 675h-45v45h45v-45zM122 585h-45v45h45v-45zM32 405v45h45v-45h-45zM167 315h-45v45h45v-45zM572 270h-45v45h45v-45zM122 270v-45h-90v45h90zM483 227h-1v43h45v-43h37v-92h8v-45h-8v-90h-510v81h53l15 15v39h40l185 181v44h45l46 45h-1v45
h45v-2v1c-3 40 -19 72 -46 96c-29 25 -70 38 -112 38c-80 0 -160 -47 -160 -151v-40h-81v40v6c3 149 122 226 241 226c46 0 91 -11 130 -34h28v-19c35 -28 62 -67 75 -116h15v-45h-9c1 -3 1 -6 1 -10c2 -13 -1 -27 -11 -37l-183 -178h22v-45h-45v23l-125 -122h261v146z
M392 90h-45v45h45v-45z" />
    <glyph glyph-name="three" unicode="3" 
d="M530 585v45h45v-45h-45zM395 495h-45v45h45v-45zM215 495v45h45v-45h-45zM620 180h-45v45h45v-45zM335 0h-2h-7h-5c-59 1 -114 17 -156 46c-34 23 -58 53 -70 89h-15v45h6c-1 5 -1 10 -1 15v41h40v34h45v-45h-4v-30v-5c1 -22 9 -40 21 -55h28v-25c31 -20 72 -29 111 -29
c76 0 159 36 159 109c-3 48 -45 97 -135 102v-22h-45v22h-74v23h-16v45h16v13h104c100 0 147 52 150 101c-2 32 -16 58 -45 78s-71 31 -115 31c-76 0 -159 -36 -159 -114v-41h-81v41v6c3 124 122 189 240 189h8h2c152 0 231 -93 231 -186v-4v-5c0 -3 0 -6 -1 -9
c-5 -49 -32 -96 -81 -128c49 -32 76 -79 81 -128c1 -3 1 -6 1 -9v-4v-5c0 -92 -79 -186 -231 -186zM350 90h-45v45h45v-45z" />
    <glyph glyph-name="four" unicode="4" 
d="M168 630h-45v45h45v-45zM486 227v293l-268 -293h268zM303 450h-45v45h45v-45zM213 405h-45v45h45v-45zM483 315h-45v45h45v-45zM618 180h-45v45h45v-45zM215 90h-45v45h45v-45zM350 90h-45v45h45v-45zM78 45v45h45v-45h-45zM486 0v146h-360l-30 67l252 275v7h6l129 141
v39h45v-11h39v-79h6v-45h-6v-180h6v-45h-6v-270h6v-45h-87z" />
    <glyph glyph-name="five" unicode="5" 
d="M438 495h-45v45h45v-45zM213 495h-45v45h45v-45zM125 315h-45v45h45v-45zM303 270v45h45v-45h-45zM215 270h-45v45h45v-45zM334 0h-2h-7v0c-63 0 -121 21 -165 58c-50 42 -76 102 -76 174v41h81v-41v-6c3 -100 82 -145 160 -145c43 0 86 14 117 43c28 31 42 74 42 117
c0 44 -15 89 -46 120v-1h-45v30c-17 7 -37 11 -59 11h-31v-41h-45v41h-174v263h481v-79h8v-45h-45v43h-363v-101h178h5c143 -8 217 -125 217 -241v-7v-2c0 -76 -30 -134 -74 -173c-3 -2 -5 -4 -8 -7v-7h-9c-36 -28 -83 -45 -140 -45zM213 135v45h45v-45h-45z" />
    <glyph glyph-name="six" unicode="6" 
d="M334 0h-2h-7h-5c-61 1 -117 22 -160 58c-47 39 -72 94 -76 160v5v219v6c8 142 124 216 241 216c70 0 139 -27 186 -79h17v-23c13 -19 23 -42 30 -67h15v-45h-9c1 -6 1 -12 1 -18v-40h-46c8 -10 15 -21 21 -32h33v-45h-16c5 -20 8 -42 8 -65v-1v-8v-7v-2
c0 -76 -30 -134 -74 -173c-38 -36 -91 -59 -157 -59zM438 540v4l-1 1c-29 25 -70 38 -112 38c-80 0 -160 -47 -160 -151v-4c44 36 102 54 160 54h7h2c21 0 41 -2 59 -7v20h45v-36c17 -8 32 -18 46 -30v3v6c-1 42 -15 77 -42 102h-4zM258 270h-45v45h45v-45zM573 225v45h45
v-45h-45zM213 180h-40c22 -68 87 -99 152 -99c43 0 86 14 117 43c24 26 37 61 41 97v4h-45v45h44c-2 16 -7 31 -13 45h-31v45h1c-2 3 -5 5 -8 8c-29 21 -67 33 -106 33c-41 0 -82 -12 -112 -38v-3h-4c-26 -25 -44 -61 -44 -110v-18v-7h48v-45zM573 0h-45v45h45v-45z" />
    <glyph glyph-name="seven" unicode="7" 
d="M350 495v45h88v-45h-88zM213 495h-45v45h45v-45zM260 450v45h45v-45h-45zM303 360h-45v45h45v-45zM573 315h-45v45h45v-45zM618 180h-45v45h45v-45zM96 -1l117 137v44h37l77 90h-67v45h88v-20l55 65h-10v45h47v-2l45 53v127h-360h-1v0h-40v81h40v0h1h440v-31
c1 -3 1 -6 1 -9v-39h7v-45h-7v-93c1 -5 0 -10 -1 -15v-1c-1 -1 -1 -1 -1 -2s-1 -2 -1 -3v-1c-1 -1 -1 -2 -2 -3l-6 -9l-115 -135v-8h-7l-230 -271h-107zM438 45v45h45v-45h-45z" />
    <glyph glyph-name="eight" unicode="8" 
d="M260 495h-45v45h45v-45zM393 495h-45v45h90v-90h-45v45zM303 405h45v-32c91 5 133 54 136 101c-2 32 -16 58 -45 78s-71 31 -115 31c-76 0 -159 -36 -159 -109c3 -47 46 -97 138 -101v32zM258 180v-45h-72c29 -37 86 -54 139 -54c76 0 159 36 159 109
c-3 50 -50 102 -150 102h-19h-7c-95 -3 -140 -53 -143 -102c0 -7 1 -13 3 -20v10h90zM334 0h-2h-7h-5h-3h-2h-7c-147 3 -224 95 -224 186v4v5c0 3 0 6 1 9c1 7 2 14 4 21h-11v45h29c13 24 33 45 59 62c-30 20 -52 45 -65 73h-23v45h8c0 3 -1 7 -1 10c-1 3 -1 6 -1 9v4v5
c0 6 0 11 1 17c6 63 50 124 128 152v28h45v-16c18 3 37 5 57 5h2h7h8h2c152 0 231 -93 231 -186v-4v-5c0 -3 0 -6 -1 -9c-5 -49 -32 -96 -81 -128c18 -12 33 -25 45 -41v24h45v-90h-13c2 -7 3 -14 4 -21c1 -3 1 -6 1 -9v-4v-5c0 -92 -79 -186 -231 -186zM258 180v45h45v-45
h-45zM618 90h-45v45h45v-45z" />
    <glyph glyph-name="nine" unicode="9" 
d="M618 720v-45h-90v45h90zM168 405v-10c5 -33 18 -64 39 -88c31 -30 75 -44 119 -44c79 0 159 47 159 151v18c0 48 -16 86 -47 113c-29 24 -70 38 -112 38c-43 0 -85 -13 -116 -41c-30 -31 -44 -75 -44 -119c0 -6 0 -12 1 -18h1zM348 540h45v-90h-45v90zM393 405v45h45v-45
h-45zM303 405v45h45v-45h-45zM78 270h-45v45h45v-45zM120 180h-45v45h45v-45zM165 135h-45v45h45v-45zM120 90h-45v45h45v-45zM210 45h-45v45h45v-45zM573 45h-45v45h45v-45zM307 0h-40v81h40h5c27 0 55 3 81 12v42h45v-20c28 22 47 55 47 107v14c-44 -36 -102 -54 -159 -54
h-5h-3h-2h-6h-7v-2h-90v24c-18 9 -34 20 -49 32l-3 3c-37 32 -61 73 -71 121h-12v45h7v9v1v8v7v2c0 70 25 124 64 163c39 42 95 69 167 69h2h8c7 0 15 0 22 -1v12h135v-63c46 -37 79 -92 83 -165v-6v-219c0 -66 -23 -123 -68 -162c-46 -39 -110 -60 -191 -60z" />
    <glyph glyph-name="colon" unicode=":" 
d="M241 465v168h168v-168h-168zM241 41v168h168v-168h-168z" />
    <glyph glyph-name="semicolon" unicode=";" 
d="M241 465v168h168v-168h-168zM182 -122h-45v90h45h6c62 1 82 17 89 73h-36v168h168v-168h-41c-9 -101 -43 -163 -186 -163z" />
    <glyph glyph-name="equal" unicode="=" 
d="M579 414h-508v90h508v-90zM71 234v90h508v-90h-508z" />
    <glyph glyph-name="question" unicode="?" 
d="M618 720v-45h-90v45h90zM573 540h45v-90h-45v90zM573 405h45v-90h-45v90zM393 135v75c-21 -11 -46 -18 -77 -18c-107 0 -148 78 -148 157c0 21 3 40 9 56h-9v45h35c24 26 57 40 92 45h-80v45h88v-44c7 1 15 1 22 1c5 0 14 1 25 3v40h45v-16c11 11 18 27 18 50v11h-20v45
h5c-15 25 -42 40 -73 40s-58 -15 -73 -40h51v-45h-66v-11h-90c0 18 2 37 7 56h-31v45h45v-6c24 50 72 91 157 91h7c77 -2 123 -39 147 -85h4v-8c14 -30 20 -64 20 -93c0 -89 -71 -167 -178 -167v0c-59 0 -67 -39 -67 -58c0 -59 39 -67 58 -67v0c19 0 58 8 58 67h90
c0 -47 -15 -94 -49 -124h23v-90h-45zM78 270h-45v45h45v45h45v-135h-45v45zM123 180v45h45v-45h-45zM123 135h-45v45h45v-45zM573 135v45h45v-45h-45zM316 0c-41 0 -76 36 -76 77c0 42 35 76 76 76c43 0 77 -34 77 -76c0 -41 -34 -77 -77 -77zM438 45h-45v45h45v-45zM78 45
v45h45v-45h-45zM573 0h-45v45h45v-45z" />
    <glyph glyph-name="at" unicode="@" 
d="M361 -45c-209 0 -327 199 -327 422c0 184 108 361 304 361h4c166 -2 273 -158 273 -291c0 -68 -23 -148 -69 -209v-108h-90v32c-29 -14 -62 -22 -98 -22c-103 0 -188 85 -188 188c0 104 85 188 188 188c71 0 134 -40 166 -100c1 11 2 21 2 31c0 102 -88 201 -187 201
c-128 0 -216 -119 -216 -271c0 -178 83 -332 238 -332h45v-90h-45zM456 328c0 55 -45 98 -98 98c-51 0 -97 -43 -97 -98c0 -52 46 -97 97 -97c53 0 98 44 98 97z" />
    <glyph glyph-name="A" unicode="A" 
d="M528 675h45v-90h-45v90zM213 630v45h45v-45h-45zM483 540h-45v45h45v-45zM213 495h-45v45h45v-45zM123 450h-45v45h45v-45zM528 450h-45v45h45v-45zM528 360h-45v45h45v-45zM168 315h-45v45h45v-45zM348 315v-45h-90v37l-41 -117h217l-108 310l-65 -185h87zM618 270v-45
h-90v45h90zM393 225h-45v45h45v-45zM123 225h-45v45h45v-45zM78 135h-45v45h45v-45zM618 90h-45v45h45v-45zM70 0l20 58l197 577v0l10 29h57l10 -29v0l197 -577l20 -58h-82l-17 50l-20 59h-273l-20 -59l-17 -50h-82zM258 45h-45v45h45v-45zM438 45v-45h-90v45h90z" />
    <glyph glyph-name="B" unicode="B" 
d="M530 585v45h45v-45h-45zM337 373h7c98 3 143 56 143 105c0 50 -47 105 -150 105h-77v-43h-45v43h-47v-210h169zM395 495v45h45v-45h-45zM260 405h-45v45h45v-45zM440 405h-45v45h45v-45zM620 315h-45v45h45v-45zM215 225h-45v45h45v-45zM440 180h-45v45h45v-45zM337 292
h-169v-211h169c25 0 47 3 66 9h-8v45h45v-28c32 21 47 51 47 79c0 51 -47 106 -150 106zM575 0h-45v45h45v-45zM87 0v664h259h4c143 -5 218 -96 218 -186c0 -55 -28 -110 -82 -146c54 -36 82 -91 82 -146c0 -89 -75 -181 -218 -186h-4h-259z" />
    <glyph glyph-name="C" unicode="C" 
d="M480 630v45h45v-45h-45zM120 630v45h45v-45h-45zM563 232c0 -153 -121 -232 -241 -232h-5c-60 1 -116 22 -159 58c-48 39 -73 94 -77 160v5v219v6c9 143 125 216 241 216c120 0 241 -79 241 -232h-81v0c0 48 -16 86 -48 113c-29 25 -69 38 -112 38
c-80 0 -160 -47 -160 -151v-200c0 -104 80 -151 160 -151s160 47 160 151h81zM300 450h-45v45h45v-45zM390 450h-45v45h45v-45zM210 405h-45v45h45v-45zM480 315h-45v45h45v-45zM570 315h-45v45h45v-45zM300 180h-45v45h45v-45zM75 90h-45v45h45v-45zM165 0h-45v45h45v-45z
" />
    <glyph glyph-name="D" unicode="D" 
d="M530 630v45h45v-45h-45zM575 540h-45v45h45v-45zM337 81c44 0 81 24 108 71c27 46 42 112 42 180c0 125 -51 251 -150 251h-170v-502h170zM395 495h-45v45h45v-45zM260 450v45h45v-45h-45zM440 360h-45v45h45v-45zM440 270h-45v45h45v-45zM305 270h-45v45h45v-45zM350 90
h-45v45h45v-45zM260 90h-45v45h45v-45zM620 0h-45v45h45v-45zM87 0v664h259c2 0 4 0 7 -1c66 -5 123 -43 162 -110c34 -59 53 -137 53 -221s-19 -162 -53 -220c-39 -67 -96 -106 -162 -111c-2 -1 -5 -1 -7 -1h-259z" />
    <glyph glyph-name="E" unicode="E" 
d="M573 540v45h45v-45h-45zM213 540h45v-90h-45v90zM393 495v45h45v-45h-45zM393 450h-45v45h45v-45zM528 495h45v-90h-45v90zM483 405h-45v45h45v-45zM573 315h-45v45h45v-45zM348 225h-45v45h45v-45zM528 270v-45h-90v45h90zM78 180h-45v45h45v-45zM618 180h-45v45h45v-45
zM303 225v-45h-90v45h90zM483 135h-45v45h45v-45zM213 90h-45v45h45v-45zM573 90h-45v45h45v-45zM393 90h-45v45h45v-45zM84 0v664h481v-81h-400v-210h255v-81h-255v-211h400v-81h-481z" />
    <glyph glyph-name="F" unicode="F" 
d="M573 585v45h45v-45h-45zM33 540h45v-90h-45v90zM348 495v45h45v-45h-45zM528 540h45v-90h-45v90zM213 495v45h45v-45h-45zM438 450h-45v45h45v-45zM573 315h-45v45h45v-45zM258 225h-45v45h45v-45zM393 225h-45v45h45v-45zM213 180h-45v45h45v-45zM483 180v-45h-90v45h90
zM573 135h-45v45h45v-45zM258 45h-45v45h45v-45zM573 45h-45v45h45v-45zM393 45h-45v45h45v-45zM165 0h-81v664h481v-81h-127v-43h-45v43h-228v-173h48v40h45v-40h234v-81h-327v-329z" />
    <glyph glyph-name="G" unicode="G" 
d="M528 585v45h45v-45h-45zM78 585v45h45v-45h-45zM438 495h-45v45h45v-45zM258 450h-45v45h45v-45zM303 405h-45v45h45v-45zM393 405h-45v45h45v-45zM618 360h-45v45h45v-45zM258 360h-45v45h45v-45zM78 315h-45v45h45v-45zM258 270h-45v45h45v-45zM438 180h-45v45h45v-45z
M565 337v-114v-6c-8 -143 -124 -217 -241 -217c-62 0 -120 21 -164 58c-47 39 -72 94 -76 160v5v219v6c8 142 124 216 240 216c39 0 79 -8 114 -25v36h45v-45h-28c60 -34 104 -95 109 -180h9v-45h-45v27h-44c0 48 -16 86 -47 113c-29 25 -70 38 -113 38c-7 0 -14 0 -21 -1
v-42h-45v31c-52 -19 -93 -65 -93 -139v-200c0 -12 1 -23 3 -33v26h45v-45h-40c22 -68 87 -99 151 -99c80 0 160 47 160 151v24h-181v81h262zM393 180v-45h-90v45h90zM78 45h-45v45h45v-45zM573 45h-45v45h45v-45zM168 0h-45v45h45v-45z" />
    <glyph glyph-name="H" unicode="H" 
d="M573 630v45h45v-45h-45zM438 675v-45h-90v45h90zM258 585v45h45v-45h-45zM258 585v-45h-90v45h90zM483 540h-45v45h45v-45zM348 540h45v-90h-45v90zM573 540h45v-90h-45v90zM258 450h-45v45h45v-45zM78 315h-45v45h45v-45zM213 270h-45v45h45v-45zM303 270h-45v45h45v-45
zM348 225h-45v45h45v-45zM213 180h-45v45h135v-45h-45v-45h-45v45zM33 180v45h45v-45h-45zM393 225h45v-90h-45v90zM618 135h-45v45h45v-45zM213 90h-45v45h45v-45zM393 90h-45v45h45v-45zM438 45h-45v45h45v-45zM33 90h51v405h-51v45h51v45h-6v45h6v34h81v-254h3v40h45v-40
h90v40h45v-40h45v40h45v-40h46v254h81v-304h53v-90h-45v45h-8v-315h-81v329h-1v-59h-45v59h-45v-14h-45v14h-183v-329h-81v45h-6v-45h-45v90zM618 45h-45v45h45v-45zM483 0h-45v45h45v-45zM303 45v45h45v-90h-90v45h45z" />
    <glyph glyph-name="I" unicode="I" 
d="M525 495v45h45v-45h-45zM390 495v45h45v-45h-45zM120 540v-45h-90v45h90zM210 450h-45v45h45v-45zM435 360h-45v45h45v-45zM120 360h-45v45h45v-45zM570 360h-45v45h45v-45zM255 315v-45h-90v45h90zM525 270h45v-90h-45v90zM120 225h-45v45h45v-45zM435 225h-45v45h45
v-45zM255 135h-45v45h45v-45zM480 90h-45v45h45v-45zM75 90h-45v45h45v-45zM81 0v81h200v234h-26v45h26v223h-26v-43h-45v43h-129v81h482v-81h-201v-133h28v-45h-28v-324h201v-81h-482z" />
    <glyph glyph-name="J" unicode="J" 
d="M80 585v45h45v-45h-45zM440 495h-45v45h45v-45zM125 495v45h45v-45h-45zM395 315h45v-90h-45v90zM305 180h-45v45h45v-45zM328 0c-63 0 -120 21 -164 58c-15 13 -28 27 -39 42v-10h-45v45h26c-13 29 -19 62 -19 97v41h81v-41v0c0 -104 80 -151 160 -151s160 47 160 151
v351h-255v81h336v-432c0 -153 -121 -232 -241 -232zM620 45h-45v45h45v-45zM575 0h-45v45h45v-45zM125 0h-45v45h45v-45z" />
    <glyph glyph-name="K" unicode="K" 
d="M215 630v45h45v-45h-45zM575 540h-45v45h45v-45zM260 495h-45v45h45v-45zM485 405h-45v45h45v-45zM350 315h-45v45h45v-45zM530 225h-45v45h45v-45zM215 180h-45v45h45v-45zM620 45h-45v45h45v-45zM168 0h-81v664h81v-291h37l239 274l15 17h16h7h86l-72 -82v0l-218 -250
l231 -264l3 -4l56 -64h-109l-29 34v0l-35 40v-29h-45v45h31l-177 202h-36v-292zM260 0h-45v45h45v-45z" />
    <glyph glyph-name="L" unicode="L" 
d="M213 630v45h45v-45h-45zM78 540h-45v45h45v-45zM528 585v-45h-90v45h90zM573 450h-45v45h45v-45zM438 450h-45v45h45v-45zM258 405h-45v45h45v-45zM213 360h-45v45h45v-45zM348 405h45v-90h-45v90zM573 360h-45v45h45v-45zM303 315v-45h-90v45h90zM618 180h-45v45h45v-45
zM483 180h-45v45h45v-45zM348 180h90v-45h-45v-45h-45v90zM258 135h-45v45h45v-45zM573 90h-45v45h45v-45zM84 0v664h81v-583h400v-81h-481z" />
    <glyph glyph-name="M" unicode="M" 
d="M393 585v45h45v-45h-45zM258 585v45h45v-45h-45zM303 495h45v-90h-45v90zM618 450h-45v45h45v-45zM78 360h-45v45h45v-45zM348 270h-45v45h45v-45zM78 225h-45v45h45v-45zM618 90h-45v45h45v-45zM483 90h-45v45h45v-45zM213 90h-45v45h45v-45zM618 405v-45h-53v-360h-81
v394l-24 -79h23v-45h-36l-82 -270h-80l-27 89v-44h-45v45h45l-55 180h-35v45h22l-25 82v-397h-81v664h81l48 -159v35h45v-45h-42l108 -358l54 178h-30v45h44l41 135h-40v45h45v-28l46 152h81v-259h53zM438 0h-45v45h45v-45z" />
    <glyph glyph-name="N" unicode="N" 
d="M213 630v45h45v-45h-45zM348 585h-45v45h45v-45zM483 540h-45v45h45v-45zM348 585h45v-90h-45v90zM618 495h-45v45h45v-45zM78 495h-45v45h45v-45zM165 0h-81v664h81l319 -512v512h81v-664h-81l-271 435v-30h-45v45h35l-38 62v-512zM393 405h-45v45h45v-45zM483 360h-45
v45h45v-45zM213 315h-45v45h45v-45zM438 315h-45v45h45v-45zM618 270h-45v45h45v-45zM258 225h-45v45h45v-45zM618 135h-45v45h45v-45zM303 135h-45v45h45v-45zM348 90h-45v45h45v-45zM258 90h-45v45h45v-45zM393 45v-45h-90v45h90z" />
    <glyph glyph-name="O" unicode="O" 
d="M123 630v45h45v-45h-45zM483 630v45h45v-45h-45zM325 0c-90 0 -241 43 -241 332s151 332 241 332c89 0 240 -43 240 -332s-151 -332 -240 -332zM573 540h-45v45h45v-45zM393 450h-45v45h45v-45zM303 450h-45v45h45v-45zM325 81c48 0 84 16 110 49c33 41 49 109 49 202
s-16 161 -49 203c-26 32 -62 48 -110 48c-49 0 -85 -16 -111 -48c-17 -22 -29 -50 -37 -85h36v-45h-44c-3 -22 -4 -47 -4 -73c0 -93 16 -161 49 -202c26 -33 62 -49 111 -49zM483 315h-45v45h45v-45zM258 180v45h45v-45h-45zM123 45h-45v45h45v-45zM573 0h-45v45h45v-45z
" />
    <glyph glyph-name="P" unicode="P" 
d="M528 630v45h45v-45h-45zM334 263c104 0 151 81 151 160c0 80 -47 160 -151 160h-169v-320h169zM393 495v45h45v-45h-45zM168 495v45h45v-45h-45zM303 360h-45v45h45v-45zM438 360h-45v45h45v-45zM348 270h-45v45h45v-45zM573 180h-45v45h45v-45zM258 135h-45v45h45v-45z
M483 45h-45v45h45v-45zM165 0h-81v664h259h6c83 -5 143 -47 179 -104v25h45v-45h-34c18 -36 27 -77 27 -117c0 -116 -75 -233 -217 -241h-6h-178v-182z" />
    <glyph glyph-name="Q" unicode="Q" 
d="M258 495v45h45v-45h-45zM78 450h-45v45h45v-45zM618 450h-45v45h45v-45zM438 450h-45v45h45v-45zM258 405h-45v45h45v-45zM165 89l1 -4c1 -2 4 -4 7 -4h84l125 90l-72 101l-24 33l32 22l2 2l2 1l31 22l23 -33v0l72 -101l36 26v331v0c0 5 -3 8 -8 8h-303v0
c-5 0 -8 -3 -8 -8v-486zM213 270h-45v45h45v-45zM483 270h-45v45h45v-45zM303 180h-45v45h45v-45zM582 31l-66 -47l-24 33l-63 88l-135 -98c-6 -4 -14 -6 -21 -7v0h-1h-5h-94c-50 0 -89 40 -89 89v486c0 50 39 89 89 89h303c50 0 89 -39 89 -89v-352c0 -13 -6 -26 -17 -33
l-14 -10h39v-45h-45v41l-33 -24l63 -88zM438 0h-45v45h45v-45z" />
    <glyph glyph-name="R" unicode="R" 
d="M530 585v45h45v-45h-45zM337 263c103 0 150 81 150 160c0 80 -47 160 -150 160h-169v-320h169zM350 495v45h45v-45h-45zM215 495v45h45v-45h-45zM260 315h-45v45h45v-45zM440 315h-45v45h45v-45zM530 180h-45v45h45v-45zM620 180h-45v45h45v-45zM168 0h-81v664h259h5
c143 -8 217 -125 217 -241c0 -89 -44 -179 -129 -219l91 -157v43h45v-45h-44l26 -45h-94l-105 183c-2 0 -4 -1 -7 -1h-5h-178v-182zM215 90h-45v45h45v-45zM350 90h-45v45h45v-45z" />
    <glyph glyph-name="S" unicode="S" 
d="M78 630v45h45v-45h-45zM528 585v45h45v-45h-45zM258 495h-45v45h45v-45zM393 495h-45v45h90v-90h-45v45zM303 405h-45v45h45v-45zM573 360h-45v45h45v-45zM123 315h-45v45h45v-45zM258 270v-45h-90v45h90zM438 225v-45h-90v45h90zM303 135h-45v45h45v-45zM348 90h-45v45
h45v-45zM334 0h-2h-8c-60 0 -117 16 -160 46c-16 11 -30 23 -41 37v-38h-45v45h40c-22 30 -34 66 -34 105v41h81v-41v0c0 -78 83 -114 159 -114c78 0 160 36 160 109c-3 50 -49 102 -150 102h-22v0c-140 1 -218 82 -227 168c-1 3 -1 6 -1 9v4v5c0 93 79 186 231 186h2h7
c39 0 79 -7 114 -21v32h45v-45h-18c59 -32 100 -86 100 -161v-41h-81v41v0c0 34 -15 62 -45 83c-28 20 -71 31 -115 31c-76 0 -159 -36 -159 -109c3 -49 50 -101 150 -101h19h7h7v32h45v-37c16 -3 31 -7 45 -13v5h45v-27c48 -32 76 -80 81 -129c1 -3 1 -6 1 -9v-4v-5
c0 -92 -79 -186 -231 -186zM573 0h-45v45h45v-45z" />
    <glyph glyph-name="T" unicode="T" 
d="M33 540v45h45v-45h-45zM213 540h45v-90h-45v90zM393 450v45h45v-45h-45zM213 360h-45v45h45v-45zM33 405h45v-90h-45v90zM483 315h-45v45h45v-45zM573 315h-45v45h45v-45zM258 270h-45v45h45v-45zM618 225h-45v45h45v-45zM483 225h-45v45h90v-90h-45v45zM213 225v-45h-90
v45h90zM258 45h-45v45h45v-45zM438 45h-45v45h45v-45zM573 0h-45v45h45v-45zM284 0v583h-119v-155h-81v236h481v-236h-81v155h-1v-43h-45v43h45v2h-45v-2h-73v-583h-81z" />
    <glyph glyph-name="U" unicode="U" 
d="M573 585v45h45v-45h-45zM393 585v45h45v-45h-45zM303 630v-45h-90v45h90zM566 0h-81v54c-44 -36 -102 -54 -160 -54c-62 0 -120 21 -164 58c-46 39 -72 93 -76 159v5v442h81v-432c0 -104 80 -151 159 -151c20 0 40 3 59 9h-36v45h45v-42c52 20 92 65 92 139v432h81v-664z
M303 495h-45v45h45v-45zM33 495v45h45v-45h-45zM438 450h-45v45h45v-45zM348 405h45v-90h-45v90zM573 405h45v-90h-45v90zM213 315v45h45v-45h-45zM78 180h-45v45h45v-45zM393 180v45h45v-45h-45zM303 225v-45h-90v45h90zM618 45h-45v45h45v-45zM78 45h-45v45h45v-45zM168 0
h-45v45h45v-45z" />
    <glyph glyph-name="V" unicode="V" 
d="M395 585v45h45v-45h-45zM569 664v-180c0 -9 -4 -18 -10 -25l-192 -427c-1 -5 -4 -10 -7 -15l-1 -2c-6 -7 -13 -11 -21 -14v0h-3c-2 -1 -5 -1 -7 -1h-1v0h-2c1 0 2 0 -2 0c1 0 3 0 -1 0c-11 2 -20 7 -27 15l-1 3c-3 4 -5 8 -6 13l-194 429c-4 5 -7 12 -8 19c0 1 0 3 0 1v3
v1v180h81v-175l160 -352l161 354v173h81zM215 495v45h45v-45h-45zM395 405h-45v45h45v-45zM620 315h-45v45h45v-45zM350 270h-45v45h45v-45zM170 225h-45v45h45v-45zM530 180h-45v45h45v-45zM125 135h-45v45h45v-45zM485 45h-45v45h45v-45zM215 0h-45v45h45v-45z" />
    <glyph glyph-name="W" unicode="W" 
d="M395 585v45h45v-45h-45zM215 585v45h45v-45h-45zM395 450h-45v45h45v-45zM260 450h-45v45h45v-45zM620 360h-45v45h45v-45zM575 180h-45v45h45v-45zM530 45h-45v45h45v-45zM125 45h-45v45h45v-45zM350 45h-45v45h45v-45zM419 0h-5v0c-5 1 -10 3 -15 5c-5 3 -9 7 -13 12
l-2 3v1c-3 5 -5 11 -5 19l-51 189l-51 -191c0 -6 -2 -12 -5 -17v-1l-2 -4c-4 -4 -8 -8 -13 -11c-6 -3 -13 -5 -15 -5h-5h-6c-5 1 -10 3 -15 5c-13 8 -20 23 -19 37l-72 292v-19h-45v45h39l-26 104l-1 2l-1 1c1 -1 1 -2 -1 3v0c-3 6 -4 13 -3 18v136h-1v40h81v-31
c1 -3 1 -6 1 -9v-139v-3l70 -285l50 185v36h81v-41v0l48 -181l71 286v3v139h-1v40h81v-31c1 -3 1 -6 1 -9v-135c1 -6 0 -13 -3 -18v-1c-1 -2 -2 -4 -1 -3l-1 -1l-1 -2l-104 -422c1 -14 -6 -29 -19 -37c-6 -3 -13 -5 -21 -5z" />
    <glyph glyph-name="X" unicode="X" 
d="M258 585v45h45v-45h-45zM33 585v45h45v-45h-45zM573 495h-45v45h45v-45zM348 495h-45v45h45v-45zM528 360h-45v45h45v-45zM168 315h-45v45h45v-45zM618 135h-45v45h45v-45zM348 90h-45v45h45v-45zM74 0l139 225h-45v45h45v-44v-1v0v1l66 106l-205 332h94l157 -256
l158 256h93l-204 -332l204 -332h-93l-45 73v-28h-45v45h35l-103 166l-157 -256h-94z" />
    <glyph glyph-name="Y" unicode="Y" 
d="M215 540v45h45v-45h-45zM440 495h-45v45h45v-45zM350 405h-45v45h45v-45zM125 315h-45v45h45v-45zM215 270h-45v45h45v-45zM620 270h-45v45h45v-45zM485 225h-45v45h45v-45zM170 90h-45v45h45v-45zM440 45h-45v45h45v-45zM260 45h-45v45h45v-45zM367 0h-81v277l-177 127
c-14 6 -23 19 -23 37v223h81v-203l160 -117l160 117v203h81v-223c0 -17 -8 -30 -22 -36l-179 -129v-276z" />
    <glyph glyph-name="Z" unicode="Z" 
d="M215 495v45h45v-45h-45zM575 450h-45v45h45v-45zM260 405h-45v45h45v-45zM125 360h-45v45h45v-45zM575 315h-45v45h45v-45zM125 270h-45v45h45v-45zM440 225h-45v45h45v-45zM620 225h-45v45h45v-45zM350 135h-45v45h45v-45zM86 0v41v1c1 4 2 9 4 13c1 4 4 8 6 12l355 516
h-284v-146h-81v227h438h8h36v-40v1c0 -8 -2 -17 -7 -24l-166 -241h45v-45h-45v45l-192 -279h284v146h81v-227h-482z" />
    <glyph glyph-name="bracketleft" unicode="[" 
d="M138 -90v918h373v-90h-283v-738h283v-90h-373z" />
    <glyph glyph-name="backslash" unicode="\" 
d="M176 738l408 -738h-110l-408 738h110z" />
    <glyph glyph-name="bracketright" unicode="]" 
d="M139 -90v90h283v738h-283v90h373v-918h-373z" />
    <glyph glyph-name="underscore" unicode="_" 
d="M57 0v90h535v-90h-535z" />
    <glyph glyph-name="a" unicode="a" 
d="M528 495v45h45v-45h-45zM78 450h-45v45h45v-45zM618 450h-45v45h45v-45zM33 405h90v-45h-45v-45h-45v90zM618 315h-45v45h45v-45zM33 270h68c8 17 18 32 31 45h-9v45h45v-18c35 20 80 30 135 32v31h45v-31c16 -1 31 -3 45 -5v36h45v-45h-6c19 -6 35 -13 50 -23
c-8 56 -34 95 -89 105v-37h-45v40h-90v-40h-45v40h-45v-40h-45v45h34v45h-79v45h90v-14h193h5c26 -1 50 -5 72 -12v26h45v-45h-7c20 -13 38 -31 52 -52v7h45v-45h-26c12 -31 19 -68 19 -110v0v-1v-249h7v-45h-88v38c-14 -9 -29 -16 -47 -22v-16h-45v5c-20 -3 -43 -5 -67 -5
h-5h-5c-39 0 -74 4 -103 13v-13h-45v32c-18 10 -33 22 -45 37v-24h-45v45h30c-15 27 -23 59 -23 96c0 14 1 27 3 39h-55v45zM348 270h90v-45h-45v-45h-45v90zM618 180h-45v45h45v-45zM213 180v45h45v-45h-45zM33 180h45v-90h-45v90zM213 135h-37c-4 7 -6 16 -8 25v20h45v-45
zM258 180h90v-45h-45v-45h-45v90zM168 135h8c18 -40 64 -54 140 -54h5h5c33 0 60 3 82 9h-15v45h45v-32c24 15 37 40 38 77h-38v45h33c-14 52 -60 65 -123 68v-23h-45v23c-42 -1 -78 -6 -102 -23h12v-45h-42c-3 -11 -5 -24 -5 -39c0 -9 1 -18 2 -26v-25zM618 45h-45v45h45
v-45zM78 0h-45v45h45v-45z" />
    <glyph glyph-name="b" unicode="b" 
d="M525 675v45h45v-45h-45zM435 630v45h45v-45h-45zM210 630v45h45v-45h-45zM30 540v45h45v-45h-45zM435 540v45h45v-45h-45zM210 540v45h45v-45h-45zM570 450h-45v45h45v-45zM322 81c80 0 160 47 160 151v62c0 89 -69 151 -160 151c-80 0 -160 -47 -160 -151v-62
c0 -104 80 -151 160 -151zM390 360h-45v45h45v-45zM255 360h-45v45h45v-45zM435 270v-45h-135v45h135zM210 225h-45v45h45v-45zM435 135h-45v45h45v-45zM255 135h-45v45h45v-45zM75 45h-45v45h45v-45zM570 45h-45v45h45v-45zM162 0h-81v720h81v-248c45 36 102 54 160 54
c120 0 241 -80 241 -230v0v-73v-6c-8 -143 -125 -217 -241 -217h-5c-58 1 -113 21 -155 55v-55zM525 0h-45v45h45v-45zM210 -45h-45v45h45v-45z" />
    <glyph glyph-name="c" unicode="c" 
d="M575 495v45h45v-45h-45zM125 495v45h45v-45h-45zM346 0c-81 0 -145 21 -191 60c-45 39 -69 96 -69 162v5v4v65v2c2 149 122 228 241 228c120 0 241 -80 241 -232h-81c0 89 -69 151 -160 151c-80 0 -160 -47 -160 -151v-63v-4v-5c0 -117 97 -141 179 -141h222v-81h-222z
M395 360h-45v45h45v-45zM260 360h-45v45h45v-45zM575 225h-45v45h45v-45zM260 135h-45v45h45v-45zM485 135h-45v45h45v-45zM620 90h-45v45h45v-45zM125 45h-45v45h45v-45zM170 0h-45v45h45v-45z" />
    <glyph glyph-name="d" unicode="d" 
d="M393 630v45h45v-45h-45zM123 630h45v-90h-45v90zM573 585v45h45v-45h-45zM348 540h-45v45h45v-45zM438 540v45h45v-45h-45zM78 450h-45v45h45v-45zM485 0v54c-43 -35 -99 -54 -159 -54h-5c-115 2 -228 76 -236 218v5v73v2c1 41 10 77 26 107h-33v45h45v-25
c45 67 123 101 202 101c58 0 116 -18 160 -54v248h81v-720h-81zM213 135h-15c31 -37 80 -54 128 -54c79 0 159 47 159 151v62c0 89 -68 151 -160 151c-79 0 -159 -47 -159 -151v-62c0 -19 3 -37 8 -52h39v-45zM618 360h-45v45h45v-45zM213 360v45h45v-45h-45zM348 360v45h45
v-45h-45zM258 315v-45h-90v45h90zM438 270h-45v45h45v-45zM348 225h-45v45h45v-45zM438 135h-45v45h45v-45zM618 90h-45v45h45v-45zM123 45h-45v45h45v-45zM438 -45h-45v45h45v-45z" />
    <glyph glyph-name="e" unicode="e" 
d="M78 495v45h45v-45h-45zM33 450v45h45v-45h-45zM528 450v45h45v-45h-45zM618 405h-45v45h45v-45zM348 405h88l2 -2v-43h-90v45zM258 360h-45v45h45v-45zM348 315h-45v45h45v-45zM168 315v12c-2 -10 -3 -21 -3 -33v-24h319v24v5c-1 43 -18 79 -46 104v2h-2
c-23 21 -53 34 -88 39v-39h-45v39c-52 -6 -102 -33 -125 -84h35v-45h-45zM618 270h-45v45h45v-45zM78 270h-45v45h45v-45zM438 270h-45v45h45v-45zM213 270v45h45v-45h-45zM528 135h-45v45h45v-45zM303 135h-45v45h45v-45zM438 135h-45v45h45v-45zM573 90h-45v45h45v-45z
M348 90h-45v45h45v-45zM123 45h49c-7 5 -14 10 -20 15c-11 10 -21 20 -29 32v-2h-90v45h66c-10 26 -15 56 -15 87v4v4v0v1v65v2c1 64 23 115 57 152h-18v45h45v-21c44 35 100 52 156 52c39 0 79 -9 114 -25v39h45v-45h-34c67 -36 116 -104 116 -201v-105h-397
c17 -89 101 -108 175 -108h222v-81h-222h-6c-47 1 -89 9 -124 23v-23h-90v45z" />
    <glyph glyph-name="f" unicode="f" 
d="M212 720v45h45v-45h-45zM122 675v45h45v-45h-45zM77 585v45h45v-45h-45zM437 585v45h45v-45h-45zM302 585v45h45v-45h-45zM572 450h-45v45h45v-45zM482 405h-45v45h45v-45zM437 360v-45h-90v45h90zM167 315h-45v45h45v-45zM572 270h-45v45h45v-45zM527 225h-45v45h45v-45
zM347 225h-45v45h45v-45zM122 270v-45h-90v45h90zM392 180h-45v45h45v-45zM167 90h-45v45h45v-45zM392 90h-45v45h45v-45zM572 90h-45v45h45v-45zM54 0v81h137v364h-114v-40h-45v45h22v76l135 2c1 150 86 228 204 228c121 0 206 -78 206 -230h-81c0 89 -33 149 -125 149
c-79 0 -123 -47 -123 -149h140v-81h-138v-364h264v-81h-482z" />
    <glyph glyph-name="g" unicode="g" 
d="M438 540v45h45v-45h-45zM78 450h-45v45h45v-45zM78 360h-45v45h45v-45zM258 360h-45v45h45v-45zM438 360h-45v45h44s1 0 1 -1v-44zM348 360v-45h-90v45h90zM213 270h-45v45h45v-45zM303 270h45v-90h-45v90zM483 225v-20c1 8 2 17 2 26v63c0 9 -1 18 -2 26v-5h-45v45h33
c-8 17 -19 32 -33 44v1h-1c-28 25 -67 40 -112 40c-79 0 -159 -47 -159 -151v-63v-6c2 -70 42 -113 92 -132v42h45v-45h-36c18 -6 38 -9 58 -9c73 0 131 39 152 99h-84v45h90zM258 135h-45v45h45v-45zM78 90h52c-28 36 -45 83 -45 141v63c0 66 22 118 57 156h-19v90h45v-66
c44 34 100 52 157 52c58 0 116 -18 160 -54v55h81v-530v-2v-3c0 -66 -23 -123 -68 -162c-4 -3 -8 -7 -13 -10h43v-45h-45v43c1 1 2 1 2 2h-2v-2c-45 -31 -103 -48 -176 -48h-40v81h40h5c81 1 173 26 173 141v3v2v57c-44 -36 -102 -54 -160 -54c-57 0 -113 18 -157 52v-7h-90
v45zM78 -45h-45v45h45v-45zM438 -45h-45v45h45v-45zM168 -45v45h45v-90h-90v45h45zM303 -90h-45v45h45v-45zM348 -135v45h45v-45h-45zM618 -180h-45v45h45v-45zM258 -135v-45h-90v45h90z" />
    <glyph glyph-name="h" unicode="h" 
d="M528 675v45h45v-45h-45zM393 630h-45v45h45v-45zM213 630v45h45v-45h-45zM528 585v-45h-90v45h90zM528 495v45h45v-45h-45zM438 360h-45v45h43l2 -2v-43zM258 360v45h45v-45h-45zM393 270h-45v45h45v-45zM213 270h-45v45h45v-45zM303 270h45v-90h-45v90zM618 180h-45v45
h45v-45zM78 180h-45v45h45v-45zM483 180h-45v45h45v-45zM258 90h-45v45h45v-45zM438 90h-45v45h45v-45zM213 45h-45v45h45v-45zM438 0h-45v45h45v-45zM84 0v720h81v-248c15 12 31 22 48 30v38h45v-22c21 5 44 8 66 8c121 0 241 -80 241 -232v-294h-81v294
c0 45 -17 83 -46 109v2h-2c-28 25 -67 40 -112 40c-79 0 -159 -47 -159 -151v-294h-81z" />
    <glyph glyph-name="i" unicode="i" 
d="M618 720v-45h-90v45h90zM123 675v45h45v-45h-45zM260 590v130h131v-130h-131zM438 675h45v-90h-45v90zM213 630h-45v45h45v-45zM168 585v-45h-90v45h90zM438 540h-45v45h45v-45zM258 540h-45v45h45v-45zM573 495h-45v45h45v-45zM438 450h-45v45h45v-45zM78 405h-45v45h45
v-45zM528 405v-45h-90v45h90zM78 315h-45v45h45v-45zM393 315h45v-90h-45v90zM258 315v-45h-90v45h90zM573 270h-45v45h45v-45zM123 180h-45v45h45v-45zM483 135h-45v45h45v-45zM78 135h-45v45h45v-45zM213 135h-45v45h45v-45zM258 90h-45v45h45v-45zM438 90h-45v45h45v-45z
M618 90h-45v45h45v-45zM85 0v81h200v364h-27v-40h-45v40h-88v81h241v-166h27v-45h-27v-234h200v-81h-481z" />
    <glyph glyph-name="j" unicode="j" 
d="M258 675v45h45v-45h-45zM348 590v130h130v-130h-130zM573 540h-45v45h45v-45zM258 540h-45v45h45v-45zM528 450h-45v45h45v-45zM78 495h45v-90h-45v90zM348 360h-45v45h45v-45zM528 315h45v-90h-45v90zM168 270v-45h-90v45h90zM303 180h-45v45h45v-45zM258 180v-45h-90
v45h90zM573 0h-45v45h45v-45zM303 -45h-45v45h45v-45zM168 -90h-45v45h45v-45zM573 -180h-45v45h45v-45zM528 -225h-45v45h45v-45zM109 -230v81h86c81 0 178 25 178 141v3v2v448h-200v81h281v-529v-2v-3c0 -73 -29 -133 -83 -172h22v-45h-45v30c-41 -23 -92 -35 -153 -35
h-86z" />
    <glyph glyph-name="k" unicode="k" 
d="M528 675v45h45v-45h-45zM393 675v45h45v-45h-45zM258 675v45h45v-45h-45zM393 630h-45v45h45v-45zM528 585h-45v45h45v-45zM258 585h-45v45h45v-45zM78 585h-45v45h45v-45zM573 585v45h45v-45h-45zM483 585v-45h-90v45h90zM303 540h-45v45h45v-45zM618 495h-45v45h45v-45
zM258 495h-45v45h45v-45zM303 450v-45h-90v45h90zM528 450h90v-45h-45v-45h-45v90zM168 405h45v-90h-45v90zM78 225h-45v45h45v-45zM528 225v45h45v-45h-45zM528 180h45v-90h-45v90zM78 135h-45v45h45v-45zM258 135h-45v45h45v-45zM213 45h-45v45h45v-45zM348 45h74l-41 45
h-33v37l-48 53h-42v45h2l-2 2l-93 -93v-134h-81v720h81v-472l202 202h-19v45h45v-19l50 50h117l-122 -121h45v-45h-45v45v0v0v0l-45 -45h45v-90h-45v45h-45v1l-33 -33l33 -36v23h45v-45h-25l25 -28v28h90v-45h-75l162 -180h-222v45zM258 0h-45v45h45v-45z" />
    <glyph glyph-name="l" unicode="l" 
d="M483 675v45h45v-45h-45zM438 585h-45v45h45v-45zM258 585h-45v45h45v-45zM573 540h-45v45h45v-45zM33 585h45v-90h-45v90zM483 540v-45h-90v45h90zM168 495v45h45v-45h-45zM618 450v-45h-90v45h90zM168 405v-45h-90v45h90zM213 315h45v-90h-45v90zM78 270h-45v45h45v-45z
M483 270h-45v45h45v-45zM528 270h45v-90h-45v90zM258 135h-45v45h45v-45zM123 90h-45v45h45v-45zM618 45h-45v45h45v-45zM438 180v-45h-73v-54h200v-81h-481v81h200v369h-26v45h26v144h-200v81h309v-45h-28v-270h28v-45h-28v-180h73z" />
    <glyph glyph-name="m" unicode="m" 
d="M33 495v45h45v-45h-45zM324 487h1c3 3 6 6 9 8h-19c3 -3 6 -5 9 -8zM618 450h-45v45h45v-45zM618 360h-45v45h45v-45zM438 315h-45v45h45v-45zM213 315h-45v45h45v-45zM33 315h45v-90h-45v90zM618 270h-45v45h45v-45zM483 270h-45v45h45v-45zM438 135v-45h-73v-45h28v-45
h-109v90h-26v45h26v45h-26v45h-45v-45h-45v90h45v45h45v-45h26v33v12h-26v45h25c1 -13 1 -27 1 -45v0c0 16 0 31 1 45h-72v45h63c-8 24 -23 35 -52 38c-4 0 -8 -1 -11 -1v-37h-40c-7 -22 -8 -54 -8 -102v-4v-5v-294h-81v294v5v4c0 20 0 39 1 57h-52v45h56c3 17 6 32 12 45
h-23v45h45v-10c3 4 7 7 11 10h-11v45h45v-25c7 7 17 11 27 11s20 0 29 -1c9 1 19 1 29 1c12 0 22 -5 30 -13c7 -3 14 -6 20 -10v37h90v-14h3c10 0 20 0 29 -1c8 1 18 1 28 1c11 0 21 -5 28 -12l2 -1v27h90v-45h-58c47 -37 50 -105 50 -192v-4v-5v-294h-81v294v5v4
c0 22 0 41 -1 57h-45v45h-45v28c-10 -6 -16 -15 -20 -28h20v-45h-27c-1 -13 -1 -27 -1 -45h28v-45h-28v-45h28v45h45v-90h-73v-45h73zM573 225h45v-135h-45v135zM483 135h-45v45h45v-45zM78 135h-45v45h45v-45zM258 135h-45v45h45v-45zM168 135h45v-90h-45v90zM33 90h45v-90
h-45v90zM438 90h45v-90h-45v90zM258 0h-45v45h45v-45z" />
    <glyph glyph-name="n" unicode="n" 
d="M485 495v45h45v-45h-45zM80 495v45h45v-45h-45zM575 450h-45v45h45v-45zM395 270h-45v45h45v-45zM215 180h-45v45h45v-45zM620 135h-45v45h45v-45zM260 45h-45v45h45v-45zM440 45h-45v45h45v-45zM86 0v294c0 152 121 232 242 232c119 0 240 -80 240 -232v-294h-81v294
c0 74 -40 119 -92 139v-28h-45v39c-7 1 -15 1 -22 1c-45 0 -84 -15 -113 -40h45v-45h-45v45v0v0v0c-30 -27 -48 -65 -48 -111v-294h-81z" />
    <glyph glyph-name="o" unicode="o" 
d="M573 495v45h45v-45h-45zM324 0c-120 0 -240 79 -240 231v65v2c2 149 121 228 240 228c57 0 115 -18 159 -53v22h45v-45h-21c36 -38 58 -90 58 -154v0v-65c0 -152 -120 -231 -241 -231zM123 495v-45h-90v45h90zM348 360v-45h-90v45h90zM573 315v45h45v-45h-45zM393 225v45
h45v-45h-45zM303 225v-45h-90v45h90zM618 135h-45v45h45v-45zM165 231v-6c3 -99 82 -144 159 -144c25 0 48 5 69 13v41h45v-13c29 27 46 64 46 109v63c0 89 -68 151 -160 151c-79 0 -159 -47 -159 -151v-63zM573 45h-45v45h45v-45zM168 45v-45h-90v45h90z" />
    <glyph glyph-name="p" unicode="p" 
d="M165 540v45h45v-45h-45zM525 540h45v-90h-45v90zM435 360h-45v45h45v-45zM345 360v-45h-90v45h90zM75 270h-45v45h45v-45zM390 270v45h45v-45h-45zM210 180h-40c21 -60 80 -99 153 -99c79 0 159 47 159 150v63v6c-3 100 -82 145 -159 145c-67 0 -122 -33 -147 -85h34v-45
h-45v10c-2 -10 -3 -20 -3 -31v-63c0 -11 1 -21 3 -31v25h45v-45zM435 180v-45h-90v45h90zM75 45h-45v45h45v-45zM525 0v45h45v-45h-45zM435 -45h-45v45h45v-45zM255 -45h-45v45h45v-45zM390 -180h-45v45h45v-45zM570 -180h-45v45h45v-45zM255 -225h-45v45h45v-45zM162 -230
h-81v756h81v-55c45 37 103 55 161 55c119 0 240 -80 240 -232v-63c0 -36 -7 -68 -19 -96h26v-45h-45v10c-45 -66 -124 -100 -202 -100c-58 0 -116 18 -161 54v-284z" />
    <glyph glyph-name="q" unicode="q" 
d="M213 540v45h45v-45h-45zM438 540v45h45v-45h-45zM78 495v45h45v-45h-45zM618 405h-45v45h45v-45zM78 360h-45v45h45v-45zM438 360h-45v45h44s1 0 1 -1v-44zM258 360h-45v45h45v-45zM348 315v-45h-90v45h90zM483 270h-45v45h45v-45zM78 180h-45v45h45v-45zM213 180h-39
c21 -68 86 -99 151 -99c73 0 131 39 152 99h-39v45h45v-20c1 8 2 17 2 26v63c0 45 -18 84 -47 110v1h-1c-23 21 -54 35 -89 39v-39h-45v39c-52 -6 -101 -33 -124 -84h34v-45h-45v6c-1 -8 -2 -17 -2 -27v-63v-6c0 -8 1 -15 2 -21v21h45v-45zM438 135h-45v45h45v-45zM303 180
h45v-90h-45v90zM78 90h-45v45h45v-45zM123 0h-45v45h45v-45zM393 -45h-45v45h45v-45zM483 -45h-45v45h45v-45zM618 -90h-45v45h45v-45zM258 -90h-45v45h45v-45zM123 -135h-45v45h45v-45zM483 -135h-45v45h45v-45zM393 -180h-45v45h45v-45zM258 -225h-45v45h45v-45zM485 -230
v284c-44 -36 -102 -54 -160 -54c-57 0 -113 18 -157 52v-7h-45v45h7c-28 36 -45 83 -45 141v63c0 152 120 232 240 232c23 0 46 -3 68 -9v23h45v-39c17 -8 33 -17 47 -29v54h81v-756h-81z" />
    <glyph glyph-name="r" unicode="r" 
d="M576 450v45h45v-45h-45zM441 360h-45v45h43l2 -2v-43zM216 315v45h45v-45h-45zM396 225h-45v45h45v-45zM531 225h-45v45h45v-45zM576 180v-45h-90v45h90zM216 180h45v-90h-45v90zM99 0v526h81v-54c11 9 23 17 36 24v44h45v-26c25 8 52 12 78 12c121 0 215 -79 215 -231
h-81c0 44 -10 81 -32 108v2h-2c-22 25 -55 40 -100 40c-79 0 -159 -47 -159 -151v-294h-81z" />
    <glyph glyph-name="s" unicode="s" 
d="M573 495v45h45v-45h-45zM78 495v45h45v-45h-45zM78 405h-45v45h45v-45zM618 360h-45v45h45v-45zM393 315h-45v45h45v-45zM528 315h-45v45h45v-45zM573 270h-45v45h45v-45zM78 270h-45v45h45v-45zM213 180h-45v45h45v-45zM618 180h-45v45h45v-45zM123 180h-45v45h45v-45z
M438 135h-45v45h45v-45zM303 180v-45h-90v45h90zM393 90h-45v45h45v-45zM78 45h80c-37 25 -65 64 -65 123h81c0 -85 134 -87 150 -87c20 0 151 -11 151 87c0 17 -16 53 -69 53h-58v-41h-45v41h-15h-4c-38 1 -83 12 -116 37v-33h-45v45h31c-21 20 -34 48 -34 84v0v1v5h-42v45
h45v-2c19 87 125 123 202 123c51 0 115 -16 158 -53v22h90v-45h-68c15 -20 24 -45 24 -75h-81c0 24 -24 44 -55 56v-26h-45v38c-8 1 -16 2 -23 2s-15 0 -22 -1v-84h-45v73c-32 -11 -57 -31 -57 -58v0v-1v-19v-1v0c0 -6 4 -14 12 -22v28h45v-45h-23c14 -8 32 -13 53 -13h118
h5c9 0 18 -1 27 -3v16h45v-29c41 -19 73 -57 73 -118v-7c-1 -29 -8 -52 -19 -71h81v-45h-90v31c-9 -12 -20 -22 -31 -31h31v-45h-45v36c-57 -34 -131 -36 -159 -36s-100 5 -156 39v-39h-90v45z" />
    <glyph glyph-name="t" unicode="t" 
d="M573 675v45h45v-45h-45zM393 675v45h45v-45h-45zM33 630v45h45v-45h-45zM528 540v45h45v-45h-45zM348 540v45h45v-45h-45zM168 540v45h45v-45h-45zM565 221v-2c0 -132 -9 -219 -169 -219h-3h-3c-161 0 -169 88 -169 222v223h-137v81h137v194h81v-194h178v-81h-178v-223
c0 -116 6 -141 88 -141h3h3c25 0 43 2 56 9h-14v45h42c3 21 4 49 4 87v41h81v-42zM573 450h-45v45h45v-45zM78 360h-45v45h45v-45zM393 360h-45v45h45v-45zM528 360v45h45v-45h-45zM213 315h-45v45h45v-45zM483 270h-45v45h45v-45zM618 225h-45v45h45v-45zM348 225h-45v45
h45v-45zM213 180h-45v45h45v-45zM78 135h-45v45h45v-45zM393 135h-45v45h45v-45zM618 45h-45v45h45v-45zM213 45h-45v45h45v-45z" />
    <glyph glyph-name="u" unicode="u" 
d="M303 535h45v-90h-45v90zM573 490v45h45v-45h-45zM33 490v45h45v-45h-45zM438 445v45h45v-45h-45zM213 445v45h45v-45h-45zM566 -5h-81v54c-44 -36 -102 -54 -160 -54c-120 0 -240 79 -240 231v295h81v-295c0 -103 80 -150 159 -150c21 0 40 3 58 9h-35v45h45v-41
c56 22 92 72 92 137v295h81v-526zM438 355h-45v45h45v-45zM618 310h-45v45h45v-45zM213 310h-45v45h45v-45zM78 265h-45v45h45v-45zM393 310v-45h-90v45h90zM438 175h-45v45h45v-45zM213 175v45h45v-45h-45zM303 130h-45v45h45v-45zM618 40h-45v45h45v-45zM78 40v45h45v-45
h-45zM168 -5h-45v45h45v-45zM483 -50h-45v45h45v-45z" />
    <glyph glyph-name="v" unicode="v" 
d="M30 495v45h45v-45h-45zM390 495v45h45v-45h-45zM210 495v45h45v-45h-45zM323 0h-1v0h-2c1 0 2 0 -2 0c1 0 3 0 -1 0c-11 2 -20 7 -27 15l-201 337c-4 5 -7 12 -8 19c0 1 0 3 0 1v3v1v150h81v-140l93 -155v-6h4l63 -106l161 269v138h81v-150c0 -10 -4 -19 -10 -26
l-200 -335c-6 -7 -13 -11 -21 -14v0h-3c-2 -1 -5 -1 -7 -1zM210 405v45h45v-45h-45zM435 405v45h45v-45h-45zM345 405v-45h-90v45h90zM345 360h45v-90h-45v90zM525 225v45h45v-45h-45zM300 225h-41l-4 6v39h45v-45zM120 180h-45v45h45v-45zM300 180v45h45v-45h-45zM570 135
h-45v45h45v-45zM120 135v45h45v-45h-45zM120 90h-45v45h45v-45zM525 135v-45h-90v45h90zM210 45h-45v45h45v-45zM480 0h-45v45h45v-45z" />
    <glyph glyph-name="w" unicode="w" 
d="M573 495v45h45v-45h-45zM33 495v45h45v-45h-45zM393 495v45h45v-45h-45zM213 540h45v-90h-45v90zM303 0v77l-30 -51c-4 -9 -10 -16 -18 -21c-6 -3 -14 -5 -16 -5h-5h-5v0c-5 1 -11 3 -16 5c-7 5 -13 12 -16 20l-107 177c-6 9 -7 19 -5 28v296h81v-294l2 -3v-4h2l64 -106
l51 85v214h81v-103h27v-45h-27v-68l50 -84l38 62h-16v45h43l4 7v294h81v-296c2 -9 1 -19 -5 -28l-109 -181c-4 -6 -9 -12 -15 -16c-2 -1 -4 -1 -5 -2c-5 -2 -10 -3 -15 -3h-1v0h-5c-4 1 -7 2 -11 3l-4 2c-5 3 -9 6 -12 10c-1 2 -2 3 -3 5l-33 55v-75h-45zM348 450h-45v45h45
v-45zM483 405h-45v45h45v-45zM618 360h-45v45h45v-45zM213 360h-45v45h45v-45zM438 315h-45v45h45v-45zM78 315h-45v45h45v-45zM258 315h-45v45h45v-45zM483 270h-45v45h45v-45zM213 225h-43l-2 4v41h90v-90h-45v45zM78 225h-45v45h45v-45zM438 225h-45v45h45v-45zM618 180
h-45v45h45v-45zM78 90h-45v45h90v-90h-45v45zM528 135h45v-90h-45v90zM339 90l-14 23l-14 -23h28zM78 0h-45v45h45v-45zM528 0h-45v45h45v-45zM168 0h-45v45h45v-45z" />
    <glyph glyph-name="x" unicode="x" 
d="M573 495v45h45v-45h-45zM33 495v45h45v-45h-45zM258 495h-45v45h90v-90h-45v45zM393 495v45h45v-45h-45zM573 405h-45v45h45v-45zM78 450h45v-90h-45v90zM438 225h45v-45h-53l127 -180h-100l-131 186l-132 -186h-100l95 135h-21v45h45v-12l40 57h-40v45h45v-38l18 25
l-191 269h100l86 -121h32v-45h-1l24 -33l54 78h-77v45h90v-27l73 103h100l-190 -269l17 -25v38h45v-45zM618 360h-45v45h45v-45zM483 360v45h45v-45h-45zM168 315h-45v45h45v-45zM78 270h-45v45h45v-45zM438 270v45h45v-45h-45zM168 270v45h45v-45h-45zM528 270v45h90v-45
h-45v-45h-90v45h45zM123 225h-45v45h90v-90h-45v45zM78 135h-45v45h45v-45zM528 135h-45v45h45v-45zM618 135h-45v45h45v-45zM348 90h-45v45h45v-45zM303 45h90v-45h-135v90h45v-45zM573 45h-45v45h45v-45zM123 45h-45v45h45v-45z" />
    <glyph glyph-name="y" unicode="y" 
d="M573 495v45h45v-45h-45zM213 495v45h45v-45h-45zM303 450h-45v45h45v-45zM78 450h-45v45h45v-45zM393 450v45h45v-45h-45zM618 360h-45v45h45v-45zM303 405v-45h-90v45h90zM78 315h-45v45h45v-45zM393 315h-45v45h45v-45zM573 225h-45v45h45v-45zM303 180v45h45v-45h-45z
M573 180v-45h-90v45h90zM168 180v-45h-90v45h90zM213 0h-45v45h45v-45zM483 45v-45h-90v45h90zM123 0h-45v45h45v-45zM528 0v45h45v-45h-45zM258 -45h-45v45h45v-45zM168 -90v45h45v-45h-45zM573 -135h-45v45h45v-45zM123 -135h-45v45h45v-45zM528 -180v-45h-90v45h90z
M123 -225h-45v45h45v-45zM196 -230h-40v81h40h6c76 1 83 28 83 141v36l-193 324c-8 9 -10 21 -8 33v141h81v-140l16 -26h32v-45h-5l117 -196l90 151h-22v45h45v-6l46 77v140h81v-150c0 -8 -2 -15 -7 -21l-1 -3l-191 -322v-61v-3c-2 -119 -20 -196 -170 -196z" />
    <glyph glyph-name="z" unicode="z" 
d="M573 495h45v-90h-45v90zM123 360v45h45v-45h-45zM213 315h-45v45h45v-45zM528 315v45h45v-45h-45zM618 270h-45v45h45v-45zM78 270h-45v45h45v45h45v-135h-45v45zM303 90v87l2 3h-2v-3l-87 -96h350v-81h-481v57l40 44v0l153 169h-65v45h90v-17l132 147h-87v-85h-45v85
h-45v-40h-45v40h-90v-40h-90v45h52v76h481v-57l-40 -44v0l-59 -65h16v-45h-45v12l-52 -57h7v-45h-45v2l-43 -47h88v-45h-45v-45h-45zM438 270h45v-90h-45v90zM618 225v-45h-90v45h90zM168 180h-45v45h45v-45zM123 135h-45v45h45v-45zM483 90h-45v45h45v-45zM573 90h-45v45
h45v-45z" />
    <glyph glyph-name="braceright" unicode="}" horiz-adv-x="605" 
 />
    <glyph glyph-name="asciitilde" unicode="~" 
d="M616 472c41 -112 -22 -186 -109 -217c-88 -33 -184 -16 -224 96c-17 46 -51 63 -109 42c-55 -20 -71 -60 -56 -102l-84 -31c-41 112 22 186 109 217c88 33 184 16 224 -96c17 -46 51 -63 109 -42c55 20 71 60 56 102z" />
    <glyph glyph-name="Adieresis" unicode="&#xc4;" 
d="M178 732v105h107v-105h-107zM366 732v105h107v-105h-107zM434 190l-108 310l-109 -310h217zM499 0l-17 50l-20 59h-273l-20 -59l-17 -50h-82l20 58l197 577v0l10 29h57l10 -29v0l197 -577l20 -58h-82z" />
    <glyph glyph-name="Odieresis" unicode="&#xd6;" 
d="M178 732v105h106v-105h-106zM366 732v105h107v-105h-107zM325 0c-90 0 -241 43 -241 332s151 332 241 332c89 0 240 -43 240 -332s-151 -332 -240 -332zM325 81c48 0 84 16 110 49c33 41 49 109 49 202s-16 161 -49 203c-26 32 -62 48 -110 48v0c-49 0 -85 -16 -111 -48
c-33 -42 -49 -110 -49 -203s16 -161 49 -202c26 -33 62 -49 111 -49z" />
    <glyph glyph-name="Udieresis" unicode="&#xdc;" 
d="M178 732v105h107v-105h-107zM366 732v105h107v-105h-107zM485 0v54c-44 -36 -102 -54 -160 -54h-5c-60 1 -116 22 -159 58c-46 39 -72 93 -76 159v5v442h81v-432c0 -104 80 -151 159 -151c80 0 160 47 160 151v432h81v-664h-81z" />
    <glyph glyph-name="agrave" unicode="&#xe0;" horiz-adv-x="500" 
 />
    <glyph glyph-name="iacute" unicode="&#xed;" horiz-adv-x="605" 
d="M80 0c-25 0 -45 20 -45 45s20 45 45 45h177v404h-177c-25 0 -45 20 -45 45s20 45 45 45h222c25 0 45 -20 45 -45v-449h178c25 0 45 -20 45 -45s-20 -45 -45 -45h-445z" />
    <glyph glyph-name="odieresis" unicode="&#xf6;" 
d="M178 559v105h106v-105h-106zM366 559v105h107v-105h-107zM324 0c-120 0 -240 79 -240 231v65v2c2 149 121 228 240 228c121 0 241 -80 241 -230v0v-65c0 -152 -120 -231 -241 -231zM165 231c0 -103 80 -150 159 -150c92 0 160 61 160 150v63c0 89 -68 151 -160 151
c-79 0 -159 -47 -159 -151v-63z" />
    <glyph glyph-name="udieresis" unicode="&#xfc;" 
d="M285 559h-107v105h107v-105zM473 559h-107v105h107v-105zM485 0v54c-44 -36 -102 -54 -160 -54c-120 0 -240 79 -240 231v295h81v-295c0 -103 80 -150 159 -150c92 0 160 61 160 150v295h81v-526h-81z" />
    <glyph glyph-name="cent" unicode="&#xa2;" 
d="M165 283v-1c0 -86 55 -133 119 -147v394c-64 -14 -119 -61 -119 -147v-99zM284 -55v108c-47 7 -90 26 -124 55c-50 42 -76 102 -76 174v1v0v99c0 135 95 213 200 229v89h81v-88c126 -13 200 -89 200 -200h-81c0 52 -29 106 -119 118v-397c81 11 119 55 119 119h81
c0 -111 -74 -187 -200 -200v-107h-81z" />
    <glyph glyph-name="sterling" unicode="&#xa3;" 
d="M55 0v90h45l66 18c17 4 52 23 38 79l-35 130h-94v90h70l-9 33c-45 163 25 273 153 306c130 37 242 -25 287 -187l-88 -23c-26 96 -78 150 -176 125c-84 -22 -120 -87 -90 -197l15 -57h203v-90h-178l28 -106c12 -41 12 -85 -7 -121h307v-90h-535z" />
    <glyph glyph-name="acute" unicode="&#xb4;" 
 />
    <glyph glyph-name="plusminus" unicode="&#xb1;" 
d="M71 103v90h209v181h-209v90h209v229h90v-229h209v-90h-209v-181h209v-90h-508z" />
    <glyph glyph-name="yen" unicode="&#xa5;" 
d="M279 0v193h-208v80h208v100h-208v80h153l-174 285h100l173 -283l173 283h100l-174 -285h157v-80h-210v-100h210v-80h-210v-193h-90z" />
    <glyph glyph-name="exclamdown" unicode="&#xa1;" horiz-adv-x="500" 
 />
    <glyph glyph-name="emdash" unicode="&#x2014;" 
d="M57 280v90h535v-90h-535z" />
    <glyph glyph-name="quoteleft" unicode="&#x2018;" 
d="M248 647v153h153v-153h-153z" />
    <glyph glyph-name="quoteright" unicode="&#x2019;" 
d="M248 647v153h153v-153h-153z" />
    <glyph glyph-name="divide" unicode="&#xf7;" 
d="M241 580c0 46 39 83 84 83c47 0 84 -37 84 -83c0 -45 -37 -85 -84 -85c-45 0 -84 40 -84 85zM71 324v90h508v-90h-508zM241 155c0 47 39 84 84 84c47 0 84 -37 84 -84c0 -45 -37 -84 -84 -84c-45 0 -84 39 -84 84z" />
    <glyph glyph-name="ydieresis" unicode="&#xff;" 
d="M473 534h-107v105h107v-105zM178 534v105h106v-105h-106zM196 -250h-40v81h40c82 0 88 25 88 141v33l-192 322c-8 9 -10 21 -8 33v141h81v-140l160 -267l159 267v140h81v-150c0 -8 -2 -15 -7 -21l-1 -3l-192 -322v-61v-4c-2 -116 -21 -190 -169 -190z" />
    <glyph glyph-name="zero-2" 
d="M573 585v45h45v-45h-45zM303 495h-45v45h45v-45zM33 495v45h45v-45h-45zM573 405h45v-90h-45v90zM258 315h-45v45h45v-45zM78 180h-45v45h45v-45zM438 180h-45v45h45v-45zM393 90h-45v45h45v-45zM78 45h-45v45h45v-45zM618 45h-45v45h45v-45zM375 81c80 0 110 74 110 196
v110v7c-1 55 -8 100 -23 132l-24 -57v-19h-8l-37 -88v-47h-20l-98 -234h100zM566 0h-81v41h81v-41zM375 583h-100v0c-80 0 -110 -74 -110 -196v-110v-7c1 -56 8 -101 23 -133l25 58v30h13l150 358h-1zM375 0h-100h-5c-41 2 -75 16 -102 38v-38h-45v45h38
c-51 47 -76 127 -77 218v139c-1 101 29 178 80 222h-79v40h81v-38c30 25 67 38 109 38h100h5c40 -1 76 -15 105 -39v39h81v-40h-80c51 -44 81 -121 80 -222v-139c-1 -144 -65 -261 -191 -263z" />
  </font>
</defs>
</svg>
